» » Curtis Lundy - Purpose

Curtis Lundy - Purpose FLAC album


Performer: Curtis Lundy
Genre: Jazz
Title: Purpose
Released: 2002
FLAC version ZIP size: 1551 mb
MP3 version ZIP size: 1994 mb
WMA version ZIP size: 1636 mb
Rating: 4.4
Votes: 471
Other Formats: XM FLAC AUD MP4 VOC RA ASF

Album · 2002 · 9 Songs. Zaius (with Leon Thomas, Don Braden, Sangoma Everett, John Hicks, Curtis Lundy, David Murray & Avery Sharpe). Eddie Henderson, John Hicks, Curtis Lundy & Victor Lewis).

Shape Shifting, 05:49.

Curtis Lundy only occasionally steps into the studio to lead his own record date, but the bassist never disappoints. The leader wrote several imaginative original works, including the captivating ballad "Ovieda. There are also rewarding tracks composed by veteran pianist John Hicks, vibraphonist Steve Nelson, tenor saxophonist Mark Shim, and Anthony Wonsey (who plays piano on all but three numbers); the drummer is the seasoned Billy Hart.

CD - Justin Time 1752). Curtis Lundy only occasionally steps into the studio to lead his own record date, but the bassist never disappoints.

Pharoah Sanders - Africa 57:44. Curtis lundy never gonna let you go 4:27. Bobby Watson - Beatitudes 8:19.

Tracks: 01 Snake Eyes (07:57) 02 Shape Shifting (05:49) 03 Walk in Serendipity (07:26) 04 Love Transforms (06:08) 05 Two Heartbeats (05:36) 06 Oveida (09:13) 07 Pas de Trois (07:54) 08 Blues for . 05:24) 09 Carmen (04:54).

Curtis Lundy - Shape Shifting 05:49. Curtis Lundy - Pas de Trois 07:54. Curtis Lundy - Snake Eyes 07:57. Curtis Lundy - Love Transforms 06:08. Curtis Lundy - Walk in Serendipity 07:25. Against All Odds - Curtis Lundy. Swift - Billy Hart, Billy Robinson, Billy Robinson & Stacie McGregor, Curtis Lundy, Stacie McGregor. Walk With Me - Curtis Lundy, James Allen, The Addicts Rehabilitation Center Choir. Mixolydis - Curtis Lundy, Eddie Henderson, John Hicks, Sonny Simmons Quintet, Victor Lewis.

August 2013, 22:45 Curtis Lundy, Purpose Used drive : Optiarc DVD RW AD-7203S Adapter: 2 ID: 0 Read mode : Secure Utilize accurate stream : Yes Defeat audio cache : Yes Make use of C2 pointers : No Read offset correction : 48 Overread into Lead-In and Lead-Out : No Fill up missing offset samples with silence : Yes Delete leading and trailing silent blocks . wav" WAVE TRACK 01 AUDIO TITLE "Snake Eyes" PERFORMER "Curtis Lundy" INDEX 01 00:00:00 TRACK 02 AUDIO TITLE "Shape Shifting" PERFORMER "Curtis Lundy" INDEX 00 07:56:02 FILE "02. Shape Shifting. wav" WAVE INDEX 01 00:00:00 TRACK 03 AUDIO TITLE "A Walk In Serendipity" PERFORMER "Curtis Lundy" INDEX 00 05:49:15 FILE "03. A Walk In Serendipity. wav" WAVE INDEX 01 00:00:00 TRACK 04 AUDIO TITLE "Love Transforms" PERFORMER "Curtis Lundy" INDEX 00 07:23:47 FILE "04.

Listen to Purpose in full in the this site app. Play on this site. 2002 Justin time Records.

Tracklist

1 Snake Eyes 7:57
2 Shape Shifting 5:49
3 A Walk In Serendipity 7:26
4 Love Transforms 6:08
5 Two Heartbeats 5:36
6 Oveida 9:13
7 Pas De Trois 7:54
8 Blues For J.A. 5:24
9 Carmen 4:54

Credits

  • Bass – Curtis Lundy
  • Drums – Billy Hart
  • Piano – Anthony Wonsey, John Hicks
  • Tenor Saxophone – Mark Shim
  • Vibraphone – Steve Nelson

Barcode and Other Identifiers

  • Barcode: 0 6894401752 2