» » Anders Kjellberg - Point

Anders Kjellberg - Point FLAC album


Performer: Anders Kjellberg
Genre: Jazz
Title: Point
Released: 1998
Style: Contemporary Jazz
FLAC version ZIP size: 1964 mb
MP3 version ZIP size: 1908 mb
WMA version ZIP size: 1932 mb
Rating: 4.3
Votes: 223
Other Formats: WMA MP1 AC3 AUD VOC ADX XM

Composed By – Anders Kjellberg.

This intriguing set features the advanced compositions of drummer Anders Kjellberg arranged for a sextet by bassist Lars Danielsson. Louis Sclavis contributes consistently fiery clarinet and bass clarinet solos, Tore Brunborg sounds quite lyrical and passionate on tenor, keyboardist Stale Storlokken adds versatility, and Marco Ambrosini's key fiddle is a bit of a wild card, if under-utilized. While the opening, "Point," is a little reminiscent of Ornette Coleman, in general the music sounds quite original, ranging from post-bop to freebop

1. (00:07:32) Anders Kjellberg - Point. 2. (00:03:26) Anders Kjellberg - Trekant. 3. (00:09:30) Anders Kjellberg - 60. 4. (00:04:38) Anders Kjellberg - Bris. 5. (00:06:51) Anders Kjellberg - Don. 6. (00:01:47) Anders Kjellberg - Dagg. 7. (00:05:59) Anders Kjellberg - Circumstances. 8. (00:05:00) Anders Kjellberg - Natt. 9. (00:05:03) Anders Kjellberg - Zoom. 10. (00:03:19) Anders Kjellberg - Till en Vag. 11. (00:03:27) Anders Kjellberg - Point Trio. 13. (00:00:00) Anders Kjellberg - Sunday. 14. (00:00:00) Anders Kjellberg - Glory.

Listen to music from Anders Kjellberg like Hopeful, Isidor Suite & more. Find the latest tracks, albums, and images from Anders Kjellberg. Overview (current section).

Album · 2010 · 14 Songs. Anders Kjellberg Trio: Open Here Anders Kjellberg Trio. Listen on Apple Music.

Anders Kjellberg Nilsson, violin Sveinung Bjelland, piano. Label: 2L. Genre: Classical. Trace of Impressions. Anders Kjellberg Nilsson & Sveinung Bjelland. Anders Kjellberg Nilsson born in Oslo in 1983, is today one of Norway’s most active violinists. He has performed as soloist with all of Norway’s symphony orchestras and frequently performs as chamber musician and ensemble leader. Since 2008 he has been artistic director of the Hardanger Music Festival. Anders Kjellberg Nilsson has made numerous recordings. On the 2L label he directs the Trondheim Soloists in their Grammy-nominated album Divertimenti. Sveinung Bjelland has performed with all the leading Norwegian orchestras. His recording of works for solo piano by Scarlatti and Mendelssohn received enthusiastic international recognition, and was nominated for a Norwegian Grammy award ( Spellemannprisen ) in 2006.

Released in 2005, Grand Illusion is the seventh studio album from Nocturnal Rites. The lyrical themes on this album focus on achieving freedom and overcoming tyranny. Fools Never Die" – 3:54. Something Undefined" – 4:08. Our Wasted Days" – 5:17. Cuts Like a Knife" – 5:10. End of our Rope" – 5:26. Never Ending" – 4:29.

Anders Kjellberg, Point Жанр: Contemporary Jazz Страна-производитель диска: Sweden Год издания: 1998 Издатель (лейбл): Dragon Records Номер по каталогу: DRCD 321 Аудиокодек: FLAC . lac) Тип рипа: image+. cue Битрейт аудио: lossless Продолжительность: 75:54 Источник (релизер): cd Наличие сканов в содержимом раздачи: нет Треклист: 1 Point 7:35 2 Trekant 3:26 3 60 9:29. TITLE "Till en Vag" PERFORMER "Anders Kjellberg" ISRC SEPUC9818100 INDEX 01 49:59:25 TRACK 11 AUDIO TITLE "Point Trio" PERFORMER "Anders Kjellberg" ISRC SEPUC9818110 INDEX 01 53:18:60 TRACK 12 AUDIO TITLE "Stale's Secret" PERFORMER "Anders Kjellberg" ISRC SEPUC9818120 INDEX 01 56:45:50 TRACK 13 AUDIO TITLE "Sunday" PERFORMER "Anders Kjellberg" ISRC SEPUC9818130 INDEX 01.

Tracklist Hide Credits

1 Point
Composed By – Anders Kjellberg
7:35
2 Trekant
Composed By – Danielsson*, Sclavis*, Storløkken*
3:26
3 60
Composed By – Anders Kjellberg
9:29
4 Bris
Composed By – Anders Kjellberg
4:45
5 Don
Composed By – Anders Kjellberg
6:50
6 Dagg
Composed By – Anders Kjellberg
1:46
7 Circumstances
Composed By – Anders Kjellberg
5:59
8 Natt
Composed By – Kjellberg*, Sclavis*, Ambrosini*, Storløkken*
5:06
9 Zoom
Composed By – Kjellberg*, Danielsson*, Sclavis*, Storløkken*
5:02
10 Till En Våg
Composed By – Anders Kjellberg
3:19
11 Point Trio
Composed By – Anders Kjellberg
3:26
12 Ståle's Secret
Composed By – Ståle Storløkken
3:40
13 Sunday
Composed By – Anders Kjellberg
4:52
14 Glory
Composed By – Anders Kjellberg
7:42
15 Jul, Jul, Strålande Jul
Composed By – Gustaf Nordqvist
2:53

Companies, etc.

  • Phonographic Copyright (p) – Dragon Records AB
  • Copyright (c) – Dragon Records AB
  • Recorded At – Sveriges Radio Göteborg's Studio

Credits

  • Arranged By – Lars Danielsson
  • Art Direction – Sofia Westin
  • Double Bass – Lars Danielsson
  • Drums, Percussion – Anders Kjellberg
  • Engineer, Mixed By – Bengt Petersson
  • Executive-Producer – Lars Westin
  • Hurdy Gurdy [Nyckelharpa] – Marco Ambrosini
  • Keyboards – Ståle Storløkken
  • Mastered By – Torbjörn Samuelsson
  • Photography By – Kari Jantzen, Rolf Ohlson
  • Producer, Liner Notes – Martin Hansson
  • Soprano Saxophone, Clarinet, Bass Clarinet – Louis Sclavis
  • Soprano Saxophone, Tenor Saxophone – Tore Brunborg

Notes

Recorded at the Swedish Radio, Gothenburg, January 7-9, 1996.

With a 6-page booklet with notes in English.

Barcode and Other Identifiers

  • Rights Society: BIEM/n©b
  • Barcode: 7 391953 003211