» » Detroit Spinners - Medley: Cupid / I've Loved You For A Long Time

Detroit Spinners - Medley: Cupid / I've Loved You For A Long Time FLAC album


Performer: Detroit Spinners
Genre: Soul and Funk music
Title: Medley: Cupid / I've Loved You For A Long Time
Released: 1980
Style: Soul, Disco
FLAC version ZIP size: 1560 mb
MP3 version ZIP size: 1444 mb
WMA version ZIP size: 1734 mb
Rating: 4.5
Votes: 357
Other Formats: MMF AUD MP1 DXD MPC AIFF RA

James Edwards remained with the group for a few weeks and was replaced by Bobby Smith, who sang lead on most of the Spinners' early records and their Atlantic Records hits. Spencer left the group shortly after Edwards, and later joined the Voice Masters and the Originals  . Cupid", "I've Loved for a Long Time" (medley).

Girl, didn't you know that (my love for you) That it hurts me so bad (I'm tellin' you) Come on look at me once (try it again) Can't you see I can't live without you I've loved you for a long time Now it's time to make you my baby Make you my baby

Look I've loved you for a long time. Now it's time to make you my baby. And I say I can't live without you. Hey I've loved you for a long time Now it's time to make you my baby. I've loved you for a long time Now it's time to make you my baby. The Spinners Miscellaneous Album songs . upid (I've Loved You For A Long Time) . 'm Coming Home . orking My Way Back to You/Forgive Me, Girl . e'll Never Love You Like I Do . ow Could I Let You Get Away . onest I Do . ove or Leave . ove Has Gone Away . ould It. Be I'm Falling in Love 1. ogether We Can Make Such Sweet Music 1. hat's What Girls Are Made For 1. eaven On Earth (So Fine) 1. 'll Be Around 1. y Whole World Ended (The Moment You Left Me) 1. e and My Music 1. unny How Time Slips Away 1. he Rubberband Man 1. hat's What Girls.

SongsTube provides all the best Spinners songs, oldies but goldies tunes and legendary hits. Cupid - Cupid Draw back your bow And let Your arrow go. Straight to My lover's heart for me Nobody but me. Cupid Please hear my cry. And let Your arrow fly Straight to My lover's heart for me. Now I don't mean to bother you but I'm in distress. There's danger of me losing all of my happiness For I love a girl who doesn't know I exist And this you can fix. So cupid Draw back your bow.

Medley: Cupid, I've Loved You For A Long Time (5:34) 12. I Just Want To Be With You (3:25) 13. Streetwise (3:38) 1. Must Be Living For A Broken Heart" PERFORMER "The Spinners" INDEX 01 18:07:54 TRACK 06 AUDIO TITLE "Honey, I'm In Love With You" PERFORMER "The Spinners" INDEX 01 23:02:48 TRACK 07 AUDIO TITLE "Just To Be With You" PERFORMER "The Spinners" INDEX 01 28:46:58 TRACK 08 AUDIO TITLE "You're Throwing A Good Love Away" PERFORMER

Spinners - Medley: Cupid, I've Loved You For A Long Time MP3 version. 1759 downloads at 23 mb/s. Spinners - Medley: Cupid, I've Loved You For A Long Time FLAC version. 1842 downloads at 31 mb/s.