» » Kid Thomas And His Algiers Stompers Featuring Emile Barnes - Kid Thomas And His Algiers Stompers Featuring Emile Barnes

Kid Thomas And His Algiers Stompers Featuring Emile Barnes - Kid Thomas And His Algiers Stompers Featuring Emile Barnes FLAC album


Performer: Kid Thomas And His Algiers Stompers
Genre: Jazz
Title: Kid Thomas And His Algiers Stompers Featuring Emile Barnes
Country: US
Released: 1994
FLAC version ZIP size: 1391 mb
MP3 version ZIP size: 1847 mb
WMA version ZIP size: 1346 mb
Rating: 4.8
Votes: 134
Other Formats: MP1 ADX AIFF XM MP1 MP4 AAC

- Kid Thomas-trumpet Emile Barnes-clarinet Louis Nelson-trombone Joe James-piano Joseph Butler-bass Samuel Penn-drums. Produced by Herb Friedwald Recording engineer: Bill Russell Recorded in New Orleans, August 18, 1960 CD digitally remastered in 1994 by Joe Tarantino (Fantasy Studios, Berkeley). EAC extraction logfile from 6. March 2007, 15:32 for CD Kid Thomas & His Algiers Stompers featuring Emile Barnes, New Orleans: The Living Legends. Used drive : LITE-ON DVDRW SOHW-1633S Adapter: 0 ID: 0 Read mode : Secure with NO C2, accurate stream, disable cache Read offset correction : 12 Overread into Lead-In and Lead-Out : No. Used output format : Internal WAV Routines 4. 00 Hz; 16 Bit; Stereo.

Kid Thomas And His Algiers Stompers, Emile Barnes. Kid Thomas And His Algiers Stompers, Emile Barnes - New Orleans, The Living Legends ‎(LP).

- Kid Thomas-trumpet Emile Barnes-clarinet Louis Nelson-trombone Joe James-piano Joseph Butler-bass Samuel Penn-drums. Posted by butros at 7:48 PM.

Download kid thomas and his algiers stompers quot on stage quot full album vinyl rip and watch online to algiers strut, songs, movies, clip, hd, mp4, 3gp, avi for mobile and p. Kid Thomas Valentine And His Algiers Stompers On Stage Videos. You can download free Kid Thomas Valentine And His Algiers Stompers On Stage videos latest songs/movies in High Definition FULL HD quality. Also Anyone can download Kid Thomas Valentine And His Algiers Stompers On Stage videos, songs, movies newest and oldest mp3,hd mp4 videos and songs. We provides Kid Thomas Valentine And His Algiers Stompers On Stage videos, songs and movies in formats like mp4, hd, webm, mkv, flv, avi, 3gp, wav, mp3. We have huge collection for free.

Personnel: Kid Thomas - tp Emil Barnes - cl Louis Nelson - tb Joe James - p Joseph Butler - b Samuel Penn - d. Turbobit oboom hitfile. Max Stadtfeld - Stax (2019). Mortimer - On Our Way Home (1969/2017).

Joined: 24 Jan 2016, 16:51. Kid Thomas & His Algiers Stompers feat. Emile Barnes - New Orleans: The Living Legends (1961/1994). Unread postby Mike1985 06 Jul 2016, 06:03. Artist: Kid Thomas & His Algiers Stompers feat. Emile Barnes Album: New Orleans: The Living Legends Genre: Dixieland, New Orleans Jazz Label: OJC Released: 1961/1994 Quality: FLAC (tracks+. cue) Tracklist: Big Lunch Blues (6:02). Some Of These Days (3:36).

Emile Barnes - New Orleans- The Living Legends (1994) {OJCCD 1845-2}/Scans/booklet ou. pg - . 3. Emile Barnes - New Orleans- The Living Legends (1994) {OJCCD 1845-2}/Scans/cd.

AUDIO TITLE "Hindustan" PERFORMER "Kid Thomas & His Algiers Stompers featuring Emile Barnes" INDEX 00 03:02:13 FILE "06 - Hindustan. wav" WAVE INDEX 01 00:00:00 TRACK 10 AUDIO TITLE "I Wonder Who's Kissing Her Now" PERFORMER "Kid Thomas & His Algiers Stompers featuring Emile Barnes" INDEX 00 03:32:23 FILE "10 - I Wonder Who's Kissing Her No. av" WAVE INDEX 01 00:00:00 TRACK 11 AUDIO TITLE "Big Milk-Cow Blues" PERFORMER "Kid Thomas & His Algiers Stompers. featuring Emile Barnes" INDEX 00 05:34:28 FILE "11 - Big Milk-Cow Blues. wav" WAVE INDEX 01 00:00:00.

Tracklist

1 Big Lunch Blues 5:55
2 Some Of These Days 3:30
3 When My Dreamboat Comes Home 4:57
4 China Boy 2:56
5 It's A Long Way To Tipperary 3:00
6 Hindustan 2:59
7 I Can't Escape From You 3:03
8 Bye And Bye 2:32
9 Down By The Riverside 3:28
10 I Wonder Who's Kissing Her Now 5:30
11 Big Milk-Cow Blues 5:19

Credits

  • Bass – Joseph Butler
  • Clarinet – Emile Barnes
  • Drums – Samuel Penn*
  • Piano – Joe James
  • Trombone – Louis Nelson
  • Trumpet – Kid Thomas*

Notes

Also issued on Riverside RS 9386; Fantasy OJCCD 1845-2

Other versions

Category Artist Title (Format) Label Category Country Year
RLP 386 Kid Thomas And His Algiers Stompers Featuring Emile Barnes Kid Thomas And His Algiers Stompers Featuring Emile Barnes - Kid Thomas And His Algiers Stompers Featuring Emile Barnes ‎(LP) Riverside Records RLP 386 US 1960
RLP 9386 Kid Thomas And His Algiers Stompers Featuring Emile Barnes Kid Thomas And His Algiers Stompers Featuring Emile Barnes - Kid Thomas And His Algiers Stompers Featuring Emile Barnes ‎(LP, RE) Riverside Records, New Orleans: The Living Legends RLP 9386 US Unknown
9386 Kid Thomas And His Algiers Stompers, Emile Barnes Kid Thomas And His Algiers Stompers, Emile Barnes - New Orleans / The Living Legends ‎(LP) Riverside Records 9386 US 1960