» » Neue Deutsche Welle - Leuchtturm

Neue Deutsche Welle - Leuchtturm FLAC album


Performer: Neue Deutsche Welle
Genre: Electronic
Title: Leuchtturm
Country: Germany
Released: 1995
Style: Happy Hardcore
FLAC version ZIP size: 1973 mb
MP3 version ZIP size: 1970 mb
WMA version ZIP size: 1347 mb
Rating: 4.5
Votes: 522
Other Formats: AAC AC3 RA XM VOX WAV VOC

Neue Deutsche Welle (German for New German Wave; see Neue Deutsche Welle) is the 1st solo album by German rapper Fler. The album is accused of having nationalist views, because of his lyrics in songs like "Neue Deutsche Welle", such as the line: Das ist schwarz, rot, gold - hart und stolz ("This is black, red, gold - hard and proud"). The black, red, and gold refers to the colors of the German flag.

On this page you can listen to mp3 music free or download album or mp3 track to your PC, phone or tablet. Release title: Neue Deutsche Welle - Leuchtturm. Photo of Neue Deutsche Welle - Leuchtturm. More albums of Neue Deutsche Welle: Leuchtturm. 4. Genre is Electronic. This album was released on the label Ariola (catalog number 79 2). This album was released in 1995 year.

Complete your Neue Deutsche Welle collection.

PERFORMER "Neue Deutsche Welle" INDEX 00 03:26:32 INDEX 01 03:28:57 TRACK 03 AUDIO TITLE "Leuchtturm (Club Version)" PERFORMER "Neue Deutsche Welle" INDEX 00 08:53:65 INDEX 01 08:55:57 TRACK 04 AUDIO TITLE "Das Licht" PERFORMER "Neue Deutsche Welle" INDEX 00 14:42:20 INDEX 01 14:44:20. Exact Audio Copy V. 9 prebeta 5 from 4. May 2009 EAC extraction logfile from 3. August 2010, 12:23 Neue Deutsche Welle, Leuchtturm Used drive : PBDS DVD+-RW DS-8W1P Adapter: 0 ID: 0 Read mode : Secure Utilize accurate stream : Yes Defeat audio cache : Yes Make use of C2 pointers : No Read offset correction : 594 Overread.

music streamingNena - 99 Luftballons (youtu. submitted 6 hours ago by UsernamesR Pointless. The following year they released their self-titled first album, which contained the singles "99 Luftballons" and "Leuchtturm" ("Lighthouse"). 99 Luftballons" was a hit in many countries (including the . and an English version of the song, "99 Red Balloons", was recorded, and retains some measure of cultural influence, being referred to in current music - the Guster track Amsterdam.

All the great songs and lyrics from the "Neue Deutsche Welle" album ont he Web's largest and most authoritative lyrics resource. Style:MLA Chicago APA. "Neue Deutsche Welle Album.

Tracklist

1 Leuchtturm (Radio Edit) 3:24
2 Leuchtturm (Extended Version) 5:23
3 Leuchtturm (Club Version) 5:24
4 Das Licht 3:24

Companies, etc.

  • Phonographic Copyright (p) – BMG Ariola Media GmbH
  • Copyright (c) – BMG Ariola Media GmbH
  • Published By – Edition Hate
  • Published By – April Musikverlag
  • Published By – Cosima Music
  • Recorded At – Bros Studios
  • Pressed By – Sonopress – K-9354

Credits

  • Executive-Producer – John O'Flynn
  • Producer, Arranged By – Daniel Peyer, David Brandes
  • Written-By – Daniel Peyer (tracks: 4), David Brandes (tracks: 4), John O'Flynn (tracks: 4), J.U. Fahrenkrog-Petersen* (tracks: 1, 2, 3), N. Kerner* (tracks: 1, 2, 3)

Notes

"Leuchtturm" published by Edition Hate/ April Musikverlag
"Das Licht" published by Cosima Music

Recorded & Mixed at Bros Studios, Germany

Barcode and Other Identifiers

  • Barcode: 743212998924
  • Label Code: LC 0116
  • Matrix / Runout: SONOPRESS K-9354/4321299892 A
  • Mastering SID Code: IFPI L021
  • Mould SID Code: IFPI 0740
  • Rights Society: BIEM GEMA

Other versions

Category Artist Title (Format) Label Category Country Year
74321 29989 1 Neue Deutsche Welle Leuchtturm ‎(12") Ariola 74321 29989 1 Germany 1995