» » Rebecca Martin - People Behave Like Ballads

Rebecca Martin - People Behave Like Ballads FLAC album


Performer: Rebecca Martin
Genre: Jazz
Title: People Behave Like Ballads
Released: 2004
FLAC version ZIP size: 1381 mb
MP3 version ZIP size: 1401 mb
WMA version ZIP size: 1648 mb
Rating: 4.4
Votes: 839
Other Formats: XM FLAC VOC MIDI MPC AC3 DXD

People Behave Like Ballads. Rebecca Martin, Peter Rende, Bill McHenry, Steve Cardenas, Ben Monder, Matt Penman & Darren Beckett. 3. Here the Same but Different.

Album by Rebecca Martin. Lead Us. These Bones Are Yours Alone. I'd Like To Think It's Coming. Gone Like The Season Does.

Album People Behave Like Ballads. Old Familiar Song Lyrics. Another season's passed by Without a sign without a single word You used to say that you loved me And I would say the same to you in return. Like an old familiar song I'd want to hear Over again. I remember you in the city With yellow hair and moon white skin Singing songs that brought the house down Forgiving for whatever mood you'd be in You could count on it. With an old familiar song they'd want to hear Over again

Rebecca Martin: Middlehope. Here is another terrific example of why I, and others like me, bother to engage in this practice. An incredible talent, a remarkable spirit, a true artist of substance this close to being absolutely huge, but not quite-yet. Personnel: Rebecca Martin: vocals, Bill McHenry: tenor sax, vocal; Steve Cardenas: guitar; Kurt Rosenwinkel: guitar; Larry Grenadier: bass; Jorge Rossy: drums. Title: Middlehope Year Released: 2002 Record Label: Blue Moon. People Behave Like Ballads by Jim Santella. Middlehope by Phil DiPietro.

People Behave Like Ballads11 - Old Familiar Song. wav Pre-gap length 0: 00: 0. 7 Peak level 9. % Track quality 10. % Test CRC 8E174124 Copy CRC 8E174124 Accurately ripped (confidence 5) B6E6C80E Copy OK Track 12 Filename I: Rebecca Martin - People Behave Like Ballads12 - Lonesome Town. AE65BEED Accurately ripped (confidence 5) 72DE370C Copy OK Track 15 Filename I: Rebecca Martin - People Behave Like Ballads15 - I'm The On. av Pre-gap length 0: 00: 0. 5 Peak level 9. % Test CRC 9EDA8BC6 Copy CRC 9EDA8BC6 Accurately ripped (confidence 5). 5B1B7FDE Copy OK Track 16 Filename I: Rebecca Martin - People Behave Like Ballads16 - Play For M. 7 Peak level 8. % Test CRC 74C5CD8B Copy CRC 74C5CD8B Accurately ripped (confidence 5) 39F92A84.

Album · 2001 · 10 Songs. People Behave Like Ballads.

Rebecca Martin People Behave Like Ballads Album songs . ead Us (Modify). Rebecca Martin Top Songs In The Early Winter Trees Learning Someone To Watch Over Me Wrap Your Troubles In Dreams Here The Same But Different It Won't Be Long For All We Know God Is In The Details Don't Mean A Thing At All Some Other Place, Some Other Time Honestly. Rebecca Martin All albums Twain When I Was Long Ago The Growing Season People Behave Like Ballads 暫存.

Rebecca Martin - Lead Us Lyrics. Artist: Rebecca Martin. Album: People Behave Like Ballads.

The Growing Season by Rebecca Martin, released 12 August 2008 1. The Space In A Song To Think 2. A Million Miles 3. Just A Boy 4. To Prove Them Wrong 5. What Feels Like Home 6. Lullaby 7. As For You, Raba 8. After Midnight 9. Make The Days Run Fast 10. Free At Last 11. Pieces 1. A series of projects followed: an album of standards, MIDDLEHOPE, which the NY Times named one of the ten best jazz albums of 2002; a lovely album of her own songs, PEOPLE BEHAVE LIKE BALLADS; a collaboration with legendary drummer Paul Motian, that led to a fine cd, ON BROADWAY VOL 4, or THE PARADOX OF CONTINUITY. THE GROWING SEASON is an album of songs about motherhood, about living in the world and living in your body. Rebecca Martin - vocals, guitar Kurt Rosenwinkel - guitar, keyboards Larry Grenadier - acoustic bass Brian Blade - drums.

Rebecca Martin (born April 24, 1969 in Portland, Maine) is an American singer and songwriter. She and Jesse Harris formed Once Blue in the early 1990s and released a self-titled debut. In 1998, she released the solo album Thoroughfare. In 2002, she released the album Middlehope, which made on the New York Times' list of top ten jazz albums of the year. In 2004, People Behave like ballads was released on MAXJAZZ Records.

Tracklist Hide Credits

1 Lead Us 3:47
2 Here The Same But Different
Written-By – Rebecca Martin, Steve Cardenas
3:24
3 These Bones Are Yours Alone 3:30
4 If Only 4:24
5 I'd Like To Think It's Comming 4:57
6 It's Oly Love 3:18
7 When The Rain Comes 3:28
8 It Won't Be :Long 2:40
9 Learning 3:24
10 East Andover 4:18
11 Old Familiar Songs 4:17
12 Lonesome Town 6:02
13 I'm Not Afraid 3:00
14 Gone Like The Season Does 3:13
15 I'm The One 3:44
16 Play For Me 2:51

Companies, etc.

  • Phonographic Copyright (p) – MAXJAZZ
  • Copyright (c) – MAXJAZZ
  • Manufactured By – MAXJAZZ

Credits

  • Acoustic Bass – Matt Penman
  • Drums – Darren Beckett
  • Electric Guitar – Ben Monder, Steve Cardenas
  • Piano, Piano [ Fender Rhodes], Organ [Hammond B3], Organ [Wurlitzer], Pedal Steel Guitar, Organ [Pump Organ], Mandolin, Backing Vocals – Peter Rende*
  • Producer – Brian Bacchus, Rebecca Martin
  • Tenor Saxophone – Bill McHenry

Notes

Comes in digipak.

Barcode and Other Identifiers

  • Barcode: 610614011929