» » Franchi Giorgetti Talamo - Il Vento Ha Cantato Per Ore Tra I Rami Dei Versi D'Amore

Franchi Giorgetti Talamo - Il Vento Ha Cantato Per Ore Tra I Rami Dei Versi D'Amore FLAC album


Performer: Franchi Giorgetti Talamo
Genre: Rock / Folk and World music
Title: Il Vento Ha Cantato Per Ore Tra I Rami Dei Versi D'Amore
Country: Italy
Released: 1972
Style: Folk Rock, Prog Rock
FLAC version ZIP size: 1668 mb
MP3 version ZIP size: 1227 mb
WMA version ZIP size: 1652 mb
Rating: 4.1
Votes: 733
Other Formats: AUD VQF AC3 MP2 MP4 VOX APE

Ore D'amore cкачать бесплатно, как и Fred Bongusto - Ore d'amore, Franchi Giorgetti Talamo - Introduzione, Franchi Giorgetti Talamo - Troppo Fredda La Notte, Franchi Giorgetti Talamo - E' Diventato Normale, Franchi Giorgetti Talamo - Il Metro, Franchi Giorgetti Talamo - Lettera Bianca. Alfredo Rey E La Sua Orchestra.

Come Potremmo Fermarci Ora? This song is by Franchi Giorgetti Talamo and appears on the album Il Vento Ha Cantato Per Ore Tra I Rami Dei Versi D'Amore (1972).

This song is by Franchi Giorgetti Talamo and appears on the album Il Vento Ha Cantato Per Ore Tra I Rami Dei Versi D'Amore (1972). Passare i cancellinello sporco del mattinocon la bocca di sonnoe il cervello già stancoe uscire al tramontoe ancora il rumore. Perché nasce la rabbiae dove muore ogni sera? Anche di notteme le trovo davantile mie otto oreanche nei sogni ricominciocome sempre a lavorareanche nei sogni ricomincioun'altra volta a lavorare.

Franchi Giorgetti Talamo Eccolo Qui Questo Domani. play) (pause) (download) (fb) (vk) (tw). Franchi Giorgetti Talamo Dove Sta L'amore. Franchi Giorgetti Talamo E' Diventato Normale. Franchi Giorgetti Talamo Il Vento Ha Cantato.

PERFORMER "Franchi Giorgetti Talamo" FLAGS DCP INDEX 01 00:00:00 FILE "09 - L'amore racconta. wav" WAVE TRACK 09 AUDIO TITLE "L'amore racconta" PERFORMER "Franchi Giorgetti Talamo" FLAGS DCP INDEX 01 00:00:00 FILE "10 - L'ospite. wav" WAVE TRACK 10 AUDIO TITLE "L'ospite" PERFORMER "Franchi Giorgetti Talamo" FLAGS DCP INDEX 01 00:00:00 FILE "11 - Come potremmo. Versione rimasterizzarìta e remixata in compact disc digipack del 1° album di Franchi Giorgetti Talamo-Il vento ha cantato per ore tra i rami dei versi d'amore con arrangiamenti di Nicola Piovani.

Danilo Franchi (classical guitar, vocals) Vittorio Giorgetti (acoustic guitar, vocals) Oliviero Talamo (acoustic and electric guitar, vocals). More progressive for its packaging than for its musical content, Il vento ha cantato per ore tra i rami dei versi d'amore was the one and only album by Franchi Giorgetti Talamo, a trio of guitarists whose musical style has strong influences by the West Coast singer-songwriter sound. They were based near Varese, but Franchi came from Fiume and Talamo from Naples, and had previously played with future PFM keyboardist Flavio Premoli in the beat group.

Lyrics By, Music By – Franchi Giorgetti Talamo. Piano – Nicola Piovani. Producer – Roberto Dané. Franchi Giorgetti Talamo. Untitled ‎(LP, Album, TP). Not On Label.

Il Vento Ha Cantato Per Ore. 5028418.

Tracklist

1°Tempo
Oppressione
A1 Introduzione
A2 Troppo Fredda La Notte
A3 E' Diventato Normale
2°Tempo
Liberazione Mancata
A4 Il Metrò
A5 Lettera Bianca
A6 Eccolo Qui, Questo Domani
3°Tempo
Intolleranza
B1 Dolce Sorella
B2 Dove Sta L'Amore?
4°Tempo
Amore
B3 L'Amore Racconta
B4 L'Ospite
B5 Come Potremmo Fermarci Ora?
B6 Il Vento Ha Cantato

Credits

  • Arranged By – Nicola Piovani
  • Bass – Maurizio Majorana
  • Drums – Enzo Restuccia*
  • Guitar, Vocals – Franchi Giorgetti Talamo
  • Lyrics By, Music By – Franchi Giorgetti Talamo
  • Piano – Nicola Piovani
  • Producer – Roberto Dané

Notes

Comes in an odd gatefold cover with a large cutout in which a thin plastic box appeared, containing hardware and spices.

Printed inner sleeve with yrics.

Recorded at Orthophonic studio, Rome.

Other versions

Category Artist Title (Format) Label Category Country Year
2861 1 Franchi Giorgetti Talamo Il Vento Ha Cantato Per Ore Tra I Rami Dei Versi D'Amore ‎(CD, Album) On Sale/Off 2861 1 Italy 1997
AREA96 003 Franchi Giorgetti Talamo Il Vento Ha Cantato Per Ore Tra I Rami Dei Versi D'Amore ‎(CD, Album) Associazione Culturale AREA96 AREA96 003 Italy 2011
PA 1029 Franchi Giorgetti Talamo Il Vento Ha Cantato Per Ore Tra I Rami Dei Versi D'Amore ‎(Cass, Album) Produttori Associati PA 1029 Italy 1973
none Franchi Giorgetti Talamo Untitled ‎(LP, Album, TP) Not On Label none Italy Unknown