» » Bert Kaempfert & His Orchestra - Proud Mary / In Our Time (A Musical Prayer Of Peace)

Bert Kaempfert & His Orchestra - Proud Mary / In Our Time (A Musical Prayer Of Peace) FLAC album


Performer: Bert Kaempfert & His Orchestra
Genre: Jazz
Title: Proud Mary / In Our Time (A Musical Prayer Of Peace)
Released: 1971
Style: Big Band, Easy Listening
FLAC version ZIP size: 1173 mb
MP3 version ZIP size: 1960 mb
WMA version ZIP size: 1117 mb
Rating: 4.7
Votes: 764
Other Formats: TTA XM AA DMF VOC APE MP3

Album: Bert Kaempfert Now! Bert Kaempfert And His Orchestra: best 2 tracks. Bert Kaempfert And His Orchestra - A Swingin' Safari Remastered Hits, 2016 03:06. Bert Kaempfert And His Orchestra - Jumpin' Jiminy Christmas Christmas Wonderland, 1963 02:15. Artist: Bert Kaempfert And His Orchestra.

Bert Kaempfert (born Berthold Heinrich Kämpfert, 16 October 1923 – 21 June 1980) was a German orchestra leader, t, music producer, arranger, and composer. He made easy listening and jazz-oriented records and wrote the music for a number of well-known songs, including "Strangers in the Night" and "Moon Over Naples". Kaempfert was born in Hamburg, Germany, where he received his lifelong nickname, Fips, and studied at the local school of music

In Our Time (A Musical Prayer For Peace). Deep in the Heart of Texas. Robert Joseph Farnon (July 24, 1917 – April 23, 2005) was a Canadian-born composer, conductor, musical arranger and trumpet player. As well as being a famous composer of original works (often in the light music genre, but also for film and television), he was recognised as one of the finest arrangers of his generation.

Bert Kaempfert Now! (Digital Download - Decca, Universal Overview . . In Our Time (A Musical Prayer for Peace). Bert Kaempfert, Bert Kaempfert & His Orchestra.

In Our Time (A Musical Prayer For Peace). Bert Kaempfert - Bert Kaempfert Now! (2004) {Polydor 982497-2}/play. The Bert Kaempfert Story - A Musical Biography '2002. Traces Of Love, The Kaempfert Touch '2001. A Swingin' Safari Serie 32 '2000. With A Sound In My Heart, Afrikaan Beat '1999. Strangers In The Night '1998. Percy Faith & His Orchestra. wav" WAVE INDEX 01 00:00:00 TRACK 05 AUDIO TITLE "Red Sky At Morning" PERFORMER "Bert Kaempfert" REM COMPOSER "" INDEX 00 02:56:28 FILE "05. Red Sky At Morning. wav" WAVE INDEX 01 00:00:00 TRACK 12 AUDIO TITLE "Living Easy" PERFORMER "Bert Kaempfert" REM COMPOSER "" INDEX 00 02:43:36 FILE "12. Living Easy. wav" WAVE INDEX 01 00:00:00. Скачивание доступно после регистрации!!